Cue Reader 5.6 - Updated 20/07/2014

Download and get help for different MediaMonkey Addons.

Moderators: Peke, Gurus

trixmoto
Posts: 10024
Joined: Fri Aug 26, 2005 3:28 am
Location: Hull, UK
Contact:

Post by trixmoto » Fri Apr 13, 2007 6:04 am

This script should work fine with relative paths. And if you have the filematching deselected then the filename doesn't matter at all, just the first FILE command in the sheet is used. Could you email me a Cuesheet that is not working for you?
Download my scripts at my own MediaMonkey fansite.
All the code for my website and scripts is safely backed up immediately and for free using Dropbox.

trixmoto
Posts: 10024
Joined: Fri Aug 26, 2005 3:28 am
Location: Hull, UK
Contact:

Post by trixmoto » Fri Apr 13, 2007 8:09 am

New version (4.9) is now available from my website. This should fix the problem where just changing the case of a file removes the cuesheet completely.
Download my scripts at my own MediaMonkey fansite.
All the code for my website and scripts is safely backed up immediately and for free using Dropbox.

Bex
Posts: 6316
Joined: Fri May 21, 2004 5:44 am
Location: Sweden

Post by Bex » Sat Apr 14, 2007 6:53 am

Works perfect! :D
Thank you very much for this update.
Advanced Duplicate Find & Fix Find More From Same - Custom Search. | Transfer PlayStat & Copy-Paste Tags/AlbumArt between any tracks.
Tagging Inconsistencies Do you think you have your tags in order? Think again...
Play History & Stats Node Like having your Last-FM account stored locally, but more advanced.
Case & Leading Zero Fixer Works on filenames too!

All My Scripts

trixmoto
Posts: 10024
Joined: Fri Aug 26, 2005 3:28 am
Location: Hull, UK
Contact:

Post by trixmoto » Sat Apr 14, 2007 7:16 am

I'm glad it's now working for you! :)
Download my scripts at my own MediaMonkey fansite.
All the code for my website and scripts is safely backed up immediately and for free using Dropbox.

spacekris
Posts: 159
Joined: Sun Mar 05, 2006 8:09 pm

Post by spacekris » Sun Apr 15, 2007 7:16 pm

trixmoto wrote:This script should work fine with relative paths. And if you have the filematching deselected then the filename doesn't matter at all, just the first FILE command in the sheet is used. Could you email me a Cuesheet that is not working for you?
ok,
you seem to have change sth for good with the 4.9 ;).
at least i get a reaction,that does say:
its unsave to use the activex component with other parts of the page,
or similar... if i click yes still nothing happens.
after trying again, the same,
the panel shortly pops up but dissappears directly.
?

for theses cues it still doesnt work at all (no reaction whatsoever):

Code: Select all

PERFORMER "Marta Gómez"
TITLE "Cantos de Agua Dulce"
FILE "CDImage.ape" WAVE
  TRACK 01 AUDIO
    TITLE "La Finca"
    PERFORMER "Marta Gómez"
    INDEX 01 00:00:00
  TRACK 02 AUDIO
    TITLE "Eso Pido Yo"
    PERFORMER "Marta Gómez"
    INDEX 01 04:57:10
  TRACK 03 AUDIO
    TITLE "Seìs"
    PERFORMER "Marta Gómez"
    INDEX 01 09:29:10
..and so on
and this

Code: Select all

REM GENRE Jazz
REM DATE 1999
PERFORMER "Fela Kuti"
TITLE "The Black President - CD 1"
REM REPLAYGAIN_ALBUM_GAIN -8.80 dB
REM REPLAYGAIN_ALBUM_PEAK 0.992004
FILE "black_president_cd1.flac" WAVE
  TRACK 01 AUDIO
    TITLE "Lady"
    ISRC GBCNP7280010
    REM REPLAYGAIN_TRACK_GAIN -7.96 dB
    REM REPLAYGAIN_TRACK_PEAK 0.992004
    INDEX 01 00:00:00
  TRACK 02 AUDIO
    TITLE "Shakara"
    ISRC GBCNP7280020
    REM REPLAYGAIN_TRACK_GAIN -9.05 dB
    REM REPLAYGAIN_TRACK_PEAK 0.908875
    INDEX 00 13:48:25
    INDEX 01 13:49:30
  TRACK 03 AUDIO
    TITLE "Gentleman (Edit Version)"
    ISRC GBCNP7380060
    REM REPLAYGAIN_TRACK_GAIN -8.19 dB
    REM REPLAYGAIN_TRACK_PEAK 0.992004
    INDEX 00 27:13:22
    INDEX 01 27:16:02
..and so on
and this

Code: Select all

PERFORMER "The Miles Davis Quintet"
TITLE "Cookin'"
FILE "CDImage.ape" WAVE
  TRACK 01 AUDIO
    TITLE "My Funny Valentine"
    PERFORMER "The Miles Davis Quintet"
    ISRC 000000000000
    FLAGS DCP
    INDEX 01 00:00:00
  TRACK 02 AUDIO
    TITLE "Blues By Five"
    PERFORMER "The Miles Davis Quintet"
    ISRC 000000000000
    FLAGS DCP
    INDEX 01 06:02:65
..

trixmoto
Posts: 10024
Joined: Fri Aug 26, 2005 3:28 am
Location: Hull, UK
Contact:

Post by trixmoto » Mon Apr 16, 2007 3:45 am

I tried these cuesheets with one of my MP3s (with the filematching switched off) and it worked correctly. Do you have the filematching switched on? Does switching it off help?
Download my scripts at my own MediaMonkey fansite.
All the code for my website and scripts is safely backed up immediately and for free using Dropbox.

Guest

Post by Guest » Mon Apr 16, 2007 2:58 pm

thanks for trying.
tried it both with filematching on/off..
what about the activeX?

trixmoto
Posts: 10024
Joined: Fri Aug 26, 2005 3:28 am
Location: Hull, UK
Contact:

Post by trixmoto » Mon Apr 16, 2007 3:05 pm

Well this is to do with your Internet Options if you are getting IE error messages, or possibly an antivirus (or similar) program. Either way, something on your system is blocking this script (which uses ActiveX to communicate with MM).
Download my scripts at my own MediaMonkey fansite.
All the code for my website and scripts is safely backed up immediately and for free using Dropbox.

Bex
Posts: 6316
Joined: Fri May 21, 2004 5:44 am
Location: Sweden

Post by Bex » Mon Apr 16, 2007 3:09 pm

Do this:
If you are still getting the warning messages - try this:
1) Run regedit.exe
2) Goto HKEY_CURRENT_USER\Software\Microsoft\Windows\CurrentVersion\Internet Settings\Zones\0
3) Modify key 1201 = 0
This enables the above option in your My Computer zone.
Advanced Duplicate Find & Fix Find More From Same - Custom Search. | Transfer PlayStat & Copy-Paste Tags/AlbumArt between any tracks.
Tagging Inconsistencies Do you think you have your tags in order? Think again...
Play History & Stats Node Like having your Last-FM account stored locally, but more advanced.
Case & Leading Zero Fixer Works on filenames too!

All My Scripts

trixmoto
Posts: 10024
Joined: Fri Aug 26, 2005 3:28 am
Location: Hull, UK
Contact:

Post by trixmoto » Wed Apr 18, 2007 5:48 pm

New version (5.0) is now available to download from my website. The filetype in the FILE command has been fixed. Before when moving the cuesheet the file extension was used, but the only valid values are "BINARY", "MOTOROLA", "AIFF", "WAVE" and "MP3". Now the filetype is copied from the original cuesheet, or the file extension is used if one cannot be found.
Download my scripts at my own MediaMonkey fansite.
All the code for my website and scripts is safely backed up immediately and for free using Dropbox.

spacekris
Posts: 159
Joined: Sun Mar 05, 2006 8:09 pm

Post by spacekris » Sun Apr 22, 2007 6:32 am

@bex: didnt work, maybe because i am starting mm from an external HD..
@trixmoto:peerguardian was blocking it !? do you know what to write into the whitelist?

Bex
Posts: 6316
Joined: Fri May 21, 2004 5:44 am
Location: Sweden

Post by Bex » Mon Apr 23, 2007 1:28 pm

Could be but I really don't know...
Advanced Duplicate Find & Fix Find More From Same - Custom Search. | Transfer PlayStat & Copy-Paste Tags/AlbumArt between any tracks.
Tagging Inconsistencies Do you think you have your tags in order? Think again...
Play History & Stats Node Like having your Last-FM account stored locally, but more advanced.
Case & Leading Zero Fixer Works on filenames too!

All My Scripts

trixmoto
Posts: 10024
Joined: Fri Aug 26, 2005 3:28 am
Location: Hull, UK
Contact:

Post by trixmoto » Tue Apr 24, 2007 7:03 am

I run MM from an external harddrive too. I don't know anything about PeerGuardian, sorry.
Download my scripts at my own MediaMonkey fansite.
All the code for my website and scripts is safely backed up immediately and for free using Dropbox.

spacekris
Posts: 159
Joined: Sun Mar 05, 2006 8:09 pm

Post by spacekris » Sun May 13, 2007 5:03 pm

im on a diffrent pc now,but still the same.
the playlists i posted still dont react to your script.
and now even peerguardian is not running the activx is blocked.
the virusscanner doesnt block it,but probably iexplorer?
though i have only ie-core installed (nlite).
how can i change the security settings of ie without ie frontend?
sorry for bothering, but the script is a neccessaty for me..

Morten
Posts: 1092
Joined: Thu Aug 11, 2005 11:31 am
Location: Norway

Post by Morten » Sun Aug 19, 2007 6:05 pm

How do I load a .cue-sheet with a accompanying .flac-file?
Best regards,
Morten

Post Reply